Unable to import video Cubase 10.5

I am trying to import an mp4 or mpg file into Cubase 10.5 and nothing happens.

It feels like I must be doing something simple that’s wrong - can anyone help please?

Hi,

Please go through the list of supported video formats in Cubase.

Thank you for your response Martin - I have looked at the list of video formats and extensions and clearly my file is not in a supported format, though I find it hard to understand how to fix it. I have used VLC to convert the file using the H264 codecs profile, but clearly there is some change I need to make that I don’t understand. Can anyone recommend a VLC conversion profile that will work please?

Here is the spec of my file from Mediainfo. The file was produced by the Windows 10 Camera App:

General
Complete name                            : E:\theco\Pictures\Camera Roll\WIN_20200411_12_06_16_Pro.mp4
Format                                   : MPEG-4
Format profile                           : Base Media / Version 2
Codec ID                                 : mp42 (mp41/isom)
File size                                : 48.6 MiB
Duration                                 : 50 s 33 ms
Overall bit rate mode                    : Constant
Overall bit rate                         : 8 143 kb/s
Encoded date                             : UTC 2020-04-11 11:06:17
Tagged date                              : UTC 2020-04-11 11:06:17

Video
ID                                       : 1
Format                                   : AVC
Format/Info                              : Advanced Video Codec
Format profile                           : Main@L3.1
Format settings                          : CABAC / 2 Ref Frames
Format settings, CABAC                   : Yes
Format settings, Reference frames        : 2 frames
Format settings, GOP                     : M=3, N=30
Codec ID                                 : avc1
Codec ID/Info                            : Advanced Video Coding
Duration                                 : 50 s 33 ms
Bit rate mode                            : Constant
Bit rate                                 : 7 899 kb/s
Width                                    : 1 280 pixels
Height                                   : 720 pixels
Display aspect ratio                     : 16:9
Frame rate mode                          : Variable
Frame rate                               : 30.060 FPS
Minimum frame rate                       : 20.298 FPS
Maximum frame rate                       : 37.594 FPS
Original frame rate                      : 30.000 FPS
Standard                                 : Component
Color space                              : YUV
Chroma subsampling                       : 4:2:0
Bit depth                                : 8 bits
Scan type                                : Progressive
Bits/(Pixel*Frame)                       : 0.285
Stream size                              : 47.3 MiB (97%)
Encoded date                             : UTC 2020-04-11 11:06:17
Tagged date                              : UTC 2020-04-11 11:06:17
Color range                              : Full
Codec configuration box                  : avcC

Audio
ID                                       : 2
Format                                   : AAC LC
Format/Info                              : Advanced Audio Codec Low Complexity
Codec ID                                 : mp4a-40-2
Duration                                 : 50 s 3 ms
Source duration                          : 49 s 993 ms
Bit rate mode                            : Constant
Bit rate                                 : 192 kb/s
Channel(s)                               : 2 channels
Channel layout                           : L R
Sampling rate                            : 44.1 kHz
Frame rate                               : 43.066 FPS (1024 SPF)
Compression mode                         : Lossy
Stream size                              : 1.17 MiB (2%)
Source stream size                       : 1.17 MiB (2%)
Encoded date                             : UTC 2020-04-11 11:06:17
Tagged date                              : UTC 2020-04-11 11:06:17
mdhd_Duration                            : 50003

Hi,

I’m sorry, myself I’m not in video at all Hopefully someone else will help.

Try changing the frame rate in VLC to 29.97

Hi,

You are totally right.

Sorry, I deleted my post to do some research, but not fast enough! Anyway, Martin confirms. :slight_smile:

Thank you everyone - I have converted to constant rate with Handbrake and the file loads fine…except, audio is now out of sync………

I will avoid using the Camera App in future.

Your help is much appreciated
Jim

You should check out this app, it converts videos to a format Cubase will handle, it is written by a Cubase/Nuendo user. Highly recommended.

https://audiospot.audio/audiospot-creativetools

Thank you very much Steve - I’ll try that next, looks extremely good

I have used ER toolkit for a couple of conversions, both easily and successfully, and am able to import them into Cubase.

The converted videos play just fine in VLC with sound well synchronised but not so in Cubase. Cubase happily imports them but the sound is not in synch in the video player.

I have since imported other videos (not created with variable frame rate) and they play with sound synchronised both in and out of Cubase.

I’m at a loss with this - the simplest option is for me not to use the Webcam for recording, which is a shame as it is pretty good quality on this Lenovo i7 laptop.

However… I found that if I export the video from Cubase - it plays outside in Synch! So could it simply be that the Cubase video player has trouble keeping up with the display but the editing actually functions OK?

I’m grateful to those who taken trouble and helped with this - I’m not necessarily expecting a solution but all comments welcome!

Variable frame rates are not supported, as they state on the page linked above, so you have to convert accordingly, or configure the source to conform.

Did you try the ProRes conversion in Er Media Toolkit?

We are having the same issue with importing video into Cubase Pro 10.5 on Windows 10 home.

Our videos were taken with a Pixel 2 and 3. Turns out Google just wont offer the option of a stable frame rate. Doesnt matter that all the extensions and numbers match up.

So what I need is a good suggestion for an easy converter (by someone who is using it for same purpose and knows it works)

anyone?? thanks kindly.

Are you reading the thread?

Hi - if its any help, I can vouch for that app that’s in this other thread where you posted:-

Good luck

Bob

These are the settings I use with good success

I have the same result with Pro Res. I have tried it on a second machine with the same result.

For the time being I will avoid recording with the Camera app. Shame.

I really appreciate the help.

XMedia Recode can probably do the conversion, but it’s fiddly.

Could be sample-rate mismatch…